Чёрная птица (1 сезон: 1-6 серии из 6) / Black Bird / 2022 / ДБ (Пифагор), СТ / WEB-DLRip + WEB-DL (720p) + WEB-DL (1080p) Белфаст / Belfast (2021/BDRip/HDRip) Marvel's Spider-Man Remastered (2022/RUS/ENG/MULTi/RePack by Chovka) Элвис / Elvis (2022/WEB-DL/WEB-DLRip) Танцы на высоте! (2022/WEB-DL/WEB-DLRip) Булки (2022/WEB-DL/WEB-DLRip) Доктор Стрэндж: В мультивселенной безумия / Doctor Strange in the Multiverse of Madness (2022/BDRip/HDRip) Ночные налётчики / Night Raiders (2021/BDRip/HDRip) Понедельник / Monday (2020/BDRip/HDRip) Я краснею / Turning Red (2022/BDRip/HDRip) Пропавшая / Last Seen Alive (2022/BDRip/HDRip) Скрежет / Hatching / Pahanhautoja (2022/BDRip/HDRip) Воспламеняющая взглядом / Firestarter (2022/BDRip/HDRip) Миссис Харрис едет в Париж / Mrs. Harris Goes to Paris (2022/WEB-DL/WEB-DLRip) Побег из космоса / Boonie Bears: Back To Earth / Xiong chu mo: Chong fan di qiu (2022/WEB-DL/WEB-DLRip) Подвал / Crawlspace (2022/WEB-DL/WEB-DLRip) Dying Light 2: Stay Human - Ultimate Edition (2022/RUS/ENG/RePack by Chovka) Удача / Luck (2022/4K/HDR/WEB-DL/WEB-DLRip) Hard West 2 (2022/RUS/ENG/MULTi/RePack by Chovka) Миньоны: Грювитация / Minions: The Rise of Gru (2022/WEB-DL/WEB-DLRip) Морской монстр / The Sea Beast (2022/WEB-DL/WEB-DLRip) Одна (2021/WEB-DL/WEB-DLRip) Кощей. Похититель невест (2022/WEB-DL/WEB-DLRip) Селфимания (2021/WEB-DL/WEB-DLRip) Первая любовь / First Love (2022/WEB-DL/WEB-DLRip) Дышите свободно (2021/WEB-DL/WEB-DLRip) Холодная река / So Cold the River (2022/BDRip/HDRip) Розовое облако / The Pink Cloud / A Nuvem Rosa (2021/BDRip/HDRip) Главная роль / Official Competition / Competencia oficial (2021/WEB-DL/WEB-DLRip) Святым тут не место / There Are No Saints (2022/WEB-DL/WEB-DLRip) Виво / Vivo (2021/BDRip/HDRip) Взрывная игра / Hot Seat (2022/BDRip/HDRip) Заклятье: Спуск к дьяволу / The Cellar (2021/BDRip/HDRip) Один выстрел / Последний шанс / One Shot (2021/BDRip/HDRip) Дикая (2022/WEB-DL/WEB-DLRip) Обряд / The Long Night (2022/BDRip/HDRip) As Dusk Falls (2022/RUS/ENG/MULTi/RePack by Chovka) Род мужской / Men (2022/BDRip/HDRip) Всё прошло хорошо / Everything Went Fine / Tout s'est bien passé (2020/BDRip/HDRip) Соник 2 в кино / Sonic the Hedgehog 2 (2022/BDRip/HDRip) Школа волшебства / La Befana vien di notte: Le origini (2021/WEB-DL/WEB-DLRip) Боец: Король ринга / Prizefighter: The Life of Jem Belcher (2022/WEB-DL/WEB-DLRip) Молодой человек (2022/WEB-DL/WEB-DLRip) Маргарита - королева Севера / Margrete: Queen of the North / Margrete den første (2021/BDRip/HDRip) Герда (2021/BDRip/HDRip) Прощённый / The Forgiven (2021/WEB-DL/WEB-DLRip) Смертельное дельце / A Deadly Deed (2021/WEB-DL/WEB-DLRip) Экзополитика / Exopolitics (2021/WEB-DL/WEB-DLRip) Основано на вере / Faith Based (2020/BDRip/HDRip) Попадос / Pixie (2020/BDRip/HDRip) Курорт / The Resort (2021/BDRip/HDRip)
прокрутить вправо
прокрутить влево

» » Лучший стрелок / Top Gun (1986) WEB-DLRip-AVC от DoMiNo | P | Open Matte | 2.15 GB скачать с яндекс диска!

 

Лучший стрелок / Top Gun (1986) WEB-DLRip-AVC от DoMiNo | P | Open Matte | 2.15 GB скачать с яндекс диска

Категория: Фильмы AVC |  Автор: svksergey  |  21-07-2022, 23:49

0
Лучший стрелок / Top Gun (1986) WEB-DLRip-AVC от DoMiNo | P | Open Matte | 2.15 GB


Название: Лучший стрелок
Оригинальное название: Top Gun
Год выхода: 1986
Жанр: боевик, драма, мелодрама
Режиссер: Тони Скотт
В ролях: Том Круз, Келли МакГиллис, Вэл Килмер, Энтони Эдвардс, Том Скеррит, Майкл Айронсайд, Джон Стокуэлл, Бэрри Табб, Рик Россович, Тим Роббинс

О фильме: Искусный пилот истребителя Ф-14, курсант элитного училища ВМС США, летающий как бог и руководимый как в жизни, так и в небе инстинктами, а не разумом, влюбляется в инструктора училища, астрофизика, которая долгое время отказывает ему во взаимности. Уступит ли она его белозубой улыбке?

боевик, драма, мелодрама
IMDB_RATING : 6.90
ITUNEXTC : mpaa|PG|200|
ORIGINAL_TITLE : Top Gun
RATING : 7.118
WRITER : Джим Кэш, Джек Эппс мл., Уоррен Скаарен, Эхуд Йонай

Video
ID : 1
Format : AVC
Format/Info : Advanced Video Codec
Format profile : High@L4.1
Format settings, CABAC : Yes
Format settings, ReFrames : 10 frames
Codec ID : V_MPEG4/ISO/AVC
Duration : 1 h 49 min
Bit rate : 2 363 kb/s
Width : 1 024 pixels
Height : 576 pixels
Display aspect ratio : 16:9
Frame rate mode : Constant
Frame rate : 23.976 (24000/1001) FPS
Color space : YUV
Chroma subsampling : 4:2:0
Bit depth : 8 bits
Scan type : Progressive
Bits/(Pixel*Frame) : 0.167
Stream size : 1.77 GiB (82%)
Title : RIP_BY_-=DoMiNo=-
Writing library : x264 core 148 r2762M 90a61ec
Encoding settings : cabac=1 / ref=10 / deblock=1:-3:-3 / analyse=0x3:0x133 / me=umh / subme=11 / psy=1 / psy_rd=1.00:0.10 / mixed_ref=1 / me_range=48 / chroma_me=1 / trellis=2 / 8x8dct=1 / cqm=0 / deadzone=21,11 / fast_pskip=0 / chroma_qp_offset=-3 / threads=6 / lookahead_threads=1 / sliced_threads=0 / nr=0 / decimate=1 / interlaced=0 / bluray_compat=0 / constrained_intra=0 / bframes=12 / b_pyramid=2 / b_adapt=2 / b_bias=0 / direct=3 / weightb=1 / open_gop=0 / weightp=2 / keyint=230 / keyint_min=23 / scenecut=40 / intra_refresh=0 / rc=2pass / mbtree=0 / bitrate=2363 / ratetol=1.0 / qcomp=0.60 / qpmin=0 / qpmax=69 / qpstep=4 / cplxblur=20.0 / qblur=0.5 / ip_ratio=1.40 / pb_ratio=1.30 / aq=1:1.00
Language : English
Default : Yes
Forced : No
DURATION : 01:49:26.935000000

Audio
ID : 2
Format : AC-3
Format/Info : Audio Coding 3
Format settings, Endianness : Big
Codec ID : A_AC3
Duration : 1 h 49 min
Bit rate mode : Constant
Bit rate : 448 kb/s
Channel(s) : 6 channels
Channel positions : Front: L C R, Side: L R, LFE
Sampling rate : 48.0 kHz
Frame rate : 31.250 FPS (1536 spf)
Bit depth : 16 bits
Compression mode : Lossy
Stream size : 351 MiB (16%)
Title : Супербит
Language : Russian
Service kind : Complete Main
Default : Yes
Forced : No
DURATION : 01:49:41.600000000

Text #1
ID : 3
Format : UTF-8
Codec ID : S_TEXT/UTF8
Codec ID/Info : UTF-8 Plain Text
Title : RUS
Language : Russian
Default : Yes
Forced : No
DURATION : 01:49:35.985000000

Text #2
ID : 4
Format : UTF-8
Codec ID : S_TEXT/UTF8
Codec ID/Info : UTF-8 Plain Text
Title : ENG
Language : English
Default : No
Forced : No
DURATION : 01:44:30.992000000

Text #3
ID : 5
Format : UTF-8
Codec ID : S_TEXT/UTF8
Codec ID/Info : UTF-8 Plain Text
Title : ENG
Language : English
Default : No
Forced : No
DURATION : 01:44:30.909000000

Menu
00:00:00.000 : :Глава 1
00:10:02.992 : :Глава 2
00:18:36.177 : :Глава 3
00:28:21.700 : :Глава 4
00:38:42.162 : :Глава 5
00:48:45.155 : :Глава 6
01:01:09.274 : :Глава 7
01:12:16.414 : :Глава 8
01:22:32.237 : :Глава 9
01:30:39.762 : :Глава 10
01:39:00.118 : :Глава 11
01:45:12.177 : :Глава 12



Размер файла: 2.15 GB

Лучший стрелок / Top Gun (1986) WEB-DLRip-AVC от DoMiNo | P | Open Matte
Доступно для: Админ, Модер, Спецкорр, MIG, NORMAL, GOOD, BASIC, HAPPY, PRO, Platinum, Sponsor

Просмотров: 21512       ► Купить vip статус на 7 дней ◄    ► Купить vip статус на 12 месяцев

Уважаемый посетитель, Вы зашли на сайт как незарегистрированный пользователь.
Мы рекомендуем Вам Купить Vip аккаунт либо войти на сайт под своим именем.
Информация
Посетители, находящиеся в группе Гости, не могут оставлять комментарии к данной публикации.